请选择 进入手机版 | 继续访问电脑版

影视168论坛

 找回密码
 中文注册
查看: 1869|回复: 10

[百度+115][香港][1993][天台的月光][国粤语中字][WEB-DL][4.98G]

[复制链接]
  • TA的每日心情
    奋斗
    2023-11-7 13:03
  • 签到天数: 186 天

    [LV.7]常住居民III

    发表于 2021-7-8 15:22:20 | 显示全部楼层 |阅读模式


    ◎译  名 A Roof with a View
    ◎片  名 天台的月光
    ◎年  代 1993
    ◎产  地 中国香港
    ◎类  别 爱情
    ◎语  言 汉语普通话/粤语
    ◎上映日期 1993-09-16(中国香港)
    ◎IMDb评分  6.3/10 from 22 users
    ◎IMDb链接  https://www.imdb.com/title/tt0108337
    ◎豆瓣评分 7.0/10 from 547 users
    ◎豆瓣链接 https://movie.douban.com/subject/1302681/
    ◎片  长 01 42 55
    ◎导  演 区丁平 Tony Au
    ◎主  演 梁家辉 Tony Leung
           叶玉卿 Veronica Yip
           吕良伟 Ray Lui
           李婉华 Anita Lee
           吴大维 David Wu
           陈令智 Lindzay Chan
           郑则仕 Kent Cheng
           刘嘉玲 Carina Lau


    ◎标  签 香港 | 梁家辉 | 叶玉卿 | 香港电影 | 爱情 | 区丁平 | 1993 | 愛情

    ◎简  介  

      叶晓彤(叶玉卿 饰)是一名收银员,她的丈夫阿波抛弃了她离家出走,天真单纯的叶晓彤又误入骗局,正在孤立无援之际, 是住在同一栋大楼的警察刘正文(梁家辉 饰)向她伸出了援手。在刘正文的帮助下,叶晓彤得到了一份汽车推销员的工作,然而叶晓彤对汽车一无所知,于是刘正文从零开始一点一滴的教导她,在此过程中,两人之间碰撞出了爱情的火花。正当他们的感情逐渐升温之时,阿波回到了叶晓彤的身边,这一次,叶晓彤不再软弱,她果断的拒绝了阿波的求和,决定寻找自己新的生活。然而,对于接受一段新的感情,叶晓彤始终犹豫不决,巧合的是,刘正文也是如此。

    ◎获奖情况  

      第30届台北金马影展(1993)
      金马奖 最佳男主角(提名) 梁家辉
      金马奖 最佳女主角(提名) 叶玉卿
      金马奖 最佳原创歌曲(提名)

      第13届香港电影金像奖(1994)
      最佳女主角(提名) 叶玉卿
      最佳摄影(提名) 黄仲标

    ◎截      图
    [attach]116227[/attach][attach]116226[/attach][attach]116228[/attach][attach]116229[/attach]

    [attach]116225[/attach]

    1. Video
    2. ID                             : 1
    3. Format                         : AVC
    4. Format/Info                    : Advanced Video Codec
    5. Format profile                 : High@L4
    6. Format settings                : CABAC / 3 Ref Frames
    7. Format settings, CABAC         : Yes
    8. Format settings, Reference fra : 3 frames
    9. Codec ID                       : V_MPEG4/ISO/AVC
    10. Duration                       : 1 h 42 min
    11. Bit rate                       : 6 674 kb/s
    12. Width                          : 1 920 pixels
    13. Height                         : 1 080 pixels
    14. Display aspect ratio           : 16:9
    15. Frame rate mode                : Constant
    16. Frame rate                     : 23.976 (24000/1001) FPS
    17. Color space                    : YUV
    18. Chroma subsampling             : 4:2:0
    19. Bit depth                      : 8 bits
    20. Scan type                      : Progressive
    21. Bits/(Pixel*Frame)             : 0.134
    22. Stream size                    : 4.80 GiB (96%)
    23. Title                          : @至尊宝
    24. Language                       : Chinese
    25. Default                        : Yes
    26. Forced                         : No

    27. Audio #1
    28. ID                             : 2
    29. Format                         : AAC LC SBR
    30. Format/Info                    : Advanced Audio Codec Low Complexity with Spectral Band Replication
    31. Commercial name                : HE-AAC
    32. Format settings                : Explicit
    33. Codec ID                       : A_AAC-2
    34. Duration                       : 1 h 42 min
    35. Bit rate                       : 128 kb/s
    36. Channel(s)                     : 2 channels
    37. Channel layout                 : L R
    38. Sampling rate                  : 48.0 kHz
    39. Frame rate                     : 23.438 FPS (2048 SPF)
    40. Compression mode               : Lossy
    41. Stream size                    : 94.2 MiB (2%)
    42. Title                          : 国语
    43. Language                       : Chinese
    44. Default                        : Yes
    45. Forced                         : No

    46. Audio #2
    47. ID                             : 3
    48. Format                         : AAC LC SBR
    49. Format/Info                    : Advanced Audio Codec Low Complexity with Spectral Band Replication
    50. Commercial name                : HE-AAC
    51. Format settings                : Explicit
    52. Codec ID                       : A_AAC-2
    53. Duration                       : 1 h 42 min
    54. Bit rate                       : 128 kb/s
    55. Channel(s)                     : 2 channels
    56. Channel layout                 : L R
    57. Sampling rate                  : 48.0 kHz
    58. Frame rate                     : 23.438 FPS (2048 SPF)
    59. Compression mode               : Lossy
    60. Stream size                    : 94.2 MiB (2%)
    61. Title                          : 粤语
    62. Language                       : Chinese
    63. Default                        : No
    64. Forced                         : No

    65. Text #1
    66. ID                             : 4
    67. Format                         : UTF-8
    68. Codec ID                       : S_TEXT/UTF8
    69. Codec ID/Info                  : UTF-8 Plain Text
    70. Duration                       : 1 h 40 min
    71. Bit rate                       : 49 b/s
    72. Count of elements              : 1601
    73. Stream size                    : 36.4 KiB (0%)
    74. Title                          : 简体
    75. Language                       : Chinese
    76. Default                        : Yes
    77. Forced                         : No

    78. Text #2
    79. ID                             : 5
    80. Format                         : UTF-8
    81. Codec ID                       : S_TEXT/UTF8
    82. Codec ID/Info                  : UTF-8 Plain Text
    83. Duration                       : 1 h 40 min
    84. Bit rate                       : 49 b/s
    85. Count of elements              : 1601
    86. Stream size                    : 36.4 KiB (0%)
    87. Title                          : 繁体
    88. Language                       : Chinese
    89. Default                        : No
    90. Forced                         : No

    复制代码


    网飞自抓高码源,非录制版,字幕由本人根据国语音轨原创听写手打,个别少数地方实在听不出来,参考用DVD的粤语字幕代替!

    购买主题 已有 10 人购买  本主题需向作者支付 500 两金币 才能浏览
  • TA的每日心情
    开心
    2024-4-18 11:18
  • 签到天数: 112 天

    [LV.6]常住居民II

    发表于 2021-7-8 20:50:40 | 显示全部楼层
    看看这部片子
  • TA的每日心情
    慵懒
    2023-7-10 10:37
  • 签到天数: 30 天

    [LV.5]常住居民I

    发表于 2021-7-9 10:30:17 | 显示全部楼层
    多谢大佬分享~~

    该用户从未签到

    发表于 2021-7-12 15:39:21 | 显示全部楼层
    谢谢,再次发帖
  • TA的每日心情
    开心
    昨天 15:41
  • 签到天数: 845 天

    [LV.10]以坛为家III

    发表于 2021-7-22 15:42:20 | 显示全部楼层
    6666666666666666
  • TA的每日心情
    无聊
    2022-12-22 20:59
  • 签到天数: 23 天

    [LV.4]偶尔看看III

    发表于 2021-9-10 20:10:04 | 显示全部楼层
    感谢楼主制作字幕
  • TA的每日心情
    擦汗
    2021-11-16 19:27
  • 签到天数: 5 天

    [LV.2]偶尔看看I

    发表于 2021-10-28 22:26:20 | 显示全部楼层
    提示: 作者被禁止或删除 内容自动屏蔽
  • TA的每日心情
    开心
    2024-4-17 10:51
  • 签到天数: 115 天

    [LV.6]常住居民II

    发表于 2021-11-8 12:14:19 | 显示全部楼层

    谢谢,再次发帖
  • TA的每日心情
    擦汗
    2024-1-20 13:41
  • 签到天数: 263 天

    [LV.8]以坛为家I

    发表于 2022-2-25 14:13:16 | 显示全部楼层
    画质感觉本错的呦
  • TA的每日心情
    开心
    2022-11-19 21:29
  • 签到天数: 2 天

    [LV.1]初来乍到

    发表于 2022-11-20 14:40:26 来自手机 | 显示全部楼层
    提示: 作者被禁止或删除 内容自动屏蔽
    懒得打字嘛,点击右侧快捷回复 善语结善缘,恶言伤人心,请大家慎重回帖。
    您需要登录后才可以回帖 登录 | 中文注册

    本版积分规则

    影视168论坛·免责声明
    本站仅供网友自由讨论使用,所有个人言论均不代表本站立场,与本站立场无关,本站不会对其內容负任何责任。
    本站内容均经过严格审查筛选,内容健康,如发现违反国家法律法规的內容,请立即联系我们,我们立刻从网站上删除,并致以最深的歉意。
    广而告之:【影视168论坛】已经安全运行

    小黑屋|Archiver|手机版|影视168论坛

    GMT+8, 2024-6-25 12:55 , Processed in 0.176870 second(s), 23 queries , Gzip On.

    Powered by Discuz! X3.4

    Copyright © 2001-2021, Tencent Cloud.

    快速回复 返回顶部 返回列表